<svg xmlns="http://www.w3.org/2000/svg">
<defs>
<font
       font-weight="700"
       font-style="normal"
       class="str1"
       font-variant="normal"
       horiz-adv-x="722"
       id="FontID0"
       horiz-origin-x="0"
       horiz-origin-y="0"
       vert-origin-x="45"
       vert-origin-y="90"
       vert-adv-y="90"
       style="font-style:normal;font-variant:normal;font-weight:700;stroke-width:4.42999983;stroke-linecap:round;stroke-linejoin:round">
      <font-face
         id="font-face3011"
         font-family="Arial" />
      <missing-glyph
         id="missing-glyph3013">
        <path
           id="path3015"
           d="M0 0z" />
      </missing-glyph>
      <glyph
         id="glyph3017"
         horiz-adv-x="277"
         unicode=".">
        <path
           id="path3019"
           d="M71.8234 0l0 137.162 137.162 0 0 -137.162 -137.162 0z" />
      </glyph>
      <glyph
         id="glyph3021"
         horiz-adv-x="277"
         unicode=" " />
      <glyph
         id="glyph3023"
         horiz-adv-x="832"
         unicode="M">
        <path
           id="path3025"
           d="M70.8381 0l0 715.831 216.333 0 129.83 -488.33 128.335 488.33 216.836 0 0 -715.831 -134.177 0 0 563.502 -142.166 -563.502 -139.164 0 -141.664 563.502 0 -563.502 -134.164 0z" />
      </glyph>
      <glyph
         id="glyph3027"
         horiz-adv-x="722"
         unicode="A">
        <path
           id="path3029"
           d="M718.331 0l-157.329 0 -62.4969 162.668 -286.167 0 -59.0046 -162.668 -153.334 0 278.83 715.831 152.832 0 286.669 -715.831zm-266.168 283.164l-98.6634 265.665 -96.666 -265.665 195.329 0z" />
      </glyph>
      <glyph
         id="glyph3031"
         horiz-adv-x="722"
         unicode="D">
        <path
           id="path3033"
           d="M72.333 715.831l264.17 0c59.4945,0 104.831,-4.49726 136.161,-13.6677 42.0079,-12.3361 77.9986,-34.3324 107.834,-66.0017 29.9985,-31.4934 52.8365,-70.1598 68.5016,-115.823 15.5017,-45.8394 23.328,-102.168 23.328,-169.338 0,-58.8287 -7.32375,-109.668 -21.9964,-152.329 -17.8257,-52.0074 -43.327,-94.1661 -76.667,-126.338 -24.9987,-24.4963 -58.8287,-43.5028 -101.502,-57.1705 -31.8326,-10.1628 -74.4937,-15.1626 -127.996,-15.1626l-271.833 0 0 715.831zm144.503 -121.162l0 -473.996 107.834 0c40.3246,0 69.494,2.1607 87.4956,6.83383 23.3405,5.82885 42.837,15.665 58.3388,29.6593 15.5017,14.0068 28.0011,37.1715 37.8247,69.1674 9.67288,31.9959 14.6726,75.8379 14.6726,131.162 0,55.3364 -4.99975,97.671 -14.6726,127.343 -9.82363,29.6593 -23.4913,52.824 -40.9904,69.3307 -17.675,16.67 -40.0106,27.8378 -67.0067,33.6666 -20.1623,4.66057 -59.6704,6.83383 -118.662,6.83383l-64.8334 0z" />
      </glyph>
      <glyph
         id="glyph3035"
         horiz-adv-x="722"
         unicode="H">
        <path
           id="path3037"
           d="M73.1622 0l0 715.831 144.666 0 0 -281.669 283.177 0 0 281.669 144.49 0 0 -715.831 -144.49 0 0 312.999 -283.177 0 0 -312.999 -144.666 0z" />
      </glyph>
      <glyph
         id="glyph3039"
         horiz-adv-x="722"
         unicode="C">
        <path
           id="path3041"
           d="M530.828 263.165l140.006 -44.3319c-21.4939,-78.1619 -57.1705,-136.161 -107.168,-174.162 -49.8342,-37.8373 -113.336,-56.8439 -190.166,-56.8439 -94.9952,0 -173.17,32.5109 -234.335,97.3444 -61.1653,64.9967 -91.8296,153.824 -91.8296,266.331 0,119.165 30.8276,211.66 92.332,277.662 61.5044,65.8384 142.33,98.8393 242.664,98.8393 87.5082,0 158.673,-25.8404 213.331,-77.672 32.6742,-30.501 57.0072,-74.4937 73.338,-131.828l-143.171 -34.1691c-8.32873,37.1589 -25.9912,66.5042 -52.9998,87.9981 -26.8328,21.5065 -59.4945,32.1718 -97.8343,32.1718 -52.9998,0 -96.1635,-19.0066 -129.164,-57.1705 -33.0009,-38.0006 -49.495,-99.6684 -49.495,-185.003 0,-90.498 16.1675,-154.992 48.8292,-193.332 32.4984,-38.5031 74.8329,-57.6604 126.84,-57.6604 38.4905,0 71.4914,12.1602 99.1659,36.6564 27.6619,24.3329 47.4976,62.836 59.6578,115.17z" />
      </glyph>
      <glyph
         id="glyph3043"
         horiz-adv-x="722"
         unicode="B">
        <path
           id="path3045"
           d="M73.1622 715.831l286.167 0c56.668,0 99.0026,-2.33657 126.84,-7.16044 27.8252,-4.67313 52.6607,-14.5093 74.6696,-29.5086 21.9964,-14.9992 40.1613,-34.8224 54.8339,-59.8337 14.6601,-24.8229 21.9964,-52.824 21.9964,-83.6641 0,-33.5033 -9.00709,-64.3309 -26.9961,-92.332 -18.1775,-28.0011 -42.6737,-48.9925 -73.5013,-62.9993 43.4903,-12.6627 77.1569,-34.3324 100.497,-64.8334 23.5038,-30.6643 35.1615,-66.6675 35.1615,-107.997 0,-32.4984 -7.49962,-64.1676 -22.6622,-95.0078 -15.1626,-30.6643 -35.8399,-55.3239 -62.0069,-73.6646 -26.167,-18.3282 -58.4895,-29.6593 -96.9926,-33.9933 -24.0063,-2.49987 -82.1692,-4.17064 -174.338,-4.83644l-243.669 0 0 715.831zm144.666 -119.165l0 -165.494 94.6686 0c56.3414,0 91.3396,0.829104 105.007,2.49987 24.6596,2.82649 44.1686,11.3311 58.3262,25.5012 14.1701,14.1576 21.1673,32.825 21.1673,55.9896 0,22.1723 -5.99216,40.1739 -18.1649,54.0048 -12.3361,13.831 -30.501,22.1597 -54.4947,24.9987 -14.3335,1.67077 -55.4997,2.49987 -123.499,2.49987l-83.0109 0zm0 -284.672l0 -191.322 133.674 0c52.1582,0 85.159,1.33159 99.1659,4.32139 21.4939,3.84403 38.993,13.5043 52.4974,28.5036 13.5043,15.1751 20.3382,35.5007 20.3382,60.8387 0,21.4939 -5.33893,39.6588 -15.665,54.6581 -10.502,15.0118 -25.5012,26.0037 -45.1736,32.8375 -19.6598,6.83383 -62.4969,10.1628 -128.159,10.1628l-116.678 0z" />
      </glyph>
      <glyph
         id="glyph3047"
         horiz-adv-x="777"
         unicode="O">
        <path
           id="path3049"
           d="M43.5028 353.5c0,72.9988 10.8286,134.164 32.6617,183.672 16.3308,36.3298 38.5031,69.1674 66.6675,98.1609 28.1644,28.8302 59.0046,50.3367 92.4954,64.3309 44.6711,19.0066 96.0002,28.3403 154.339,28.3403 105.497,0 189.84,-32.6742 253.166,-98.1735 63.3385,-65.3359 94.9952,-156.336 94.9952,-272.825 0,-115.673 -31.4934,-206.007 -94.3294,-271.343 -62.836,-65.16 -146.827,-97.8343 -251.834,-97.8343 -106.502,0 -191.159,32.5109 -253.995,97.3444 -62.836,64.9967 -94.1661,154.49 -94.1661,268.328zm148.837 4.83644c0,-81.001 18.8307,-142.505 56.1655,-184.337 37.4981,-41.8321 84.9957,-62.6602 142.656,-62.6602 57.5097,0 104.844,20.6648 141.84,62.3336 36.8323,41.4929 55.3364,103.663 55.3364,186.661 0,82.0059 -18.0016,143.171 -53.8415,183.672 -35.9907,40.3246 -83.8274,60.4995 -143.335,60.4995 -59.6578,0 -107.658,-20.5015 -144.164,-61.3411 -36.3298,-40.8271 -54.6581,-102.332 -54.6581,-184.827z" />
      </glyph>
      <glyph
         id="glyph3051"
         horiz-adv-x="722"
         unicode="K">
        <path
           id="path3053"
           d="M74.6696 0l0 715.831 144.503 0 0 -317.836 291.995 317.836 194.337 0 -269.509 -278.83 284.169 -437.001 -187.001 0 -196.661 336.001 -117.331 -119.667 0 -216.333 -144.503 0z" />
      </glyph>
      <glyph
         id="glyph3055"
         horiz-adv-x="610"
         unicode="L">
        <path
           id="path3057"
           d="M76.667 0l0 710.002 144.503 0 0 -589.33 359.329 0 0 -120.672 -503.831 0z" />
      </glyph>
      <glyph
         id="glyph3059"
         horiz-adv-x="667"
         unicode="E">
        <path
           id="path3061"
           d="M72.8355 0l0 715.831 530.664 0 0 -121.162 -386.161 0 0 -158.673 359.329 0 0 -120.496 -359.329 0 0 -194.827 399.829 0 0 -120.672 -544.332 0z" />
      </glyph>
      <glyph
         id="glyph3063"
         horiz-adv-x="722"
         unicode="R">
        <path
           id="path3065"
           d="M73.1622 0l0 715.831 304.344 0c76.4911,0 131.991,-6.49465 166.662,-19.3332 34.6591,-12.826 62.4969,-35.664 83.3375,-68.5016 20.8281,-33.0009 31.1668,-70.499 31.1668,-112.834 0,-53.6656 -15.8409,-98.1609 -47.3343,-133.159 -31.506,-34.8349 -78.8403,-57.0072 -141.676,-66.0017 31.3426,-18.3408 57.1705,-38.3398 77.5087,-60.1729 20.3256,-21.8331 47.6609,-60.4995 82.1567,-116.163l87.5082 -139.666 -172.831 0 -104.505 155.834c-37.1715,55.663 -62.4969,90.6613 -76.1645,105.171 -13.6677,14.4968 -28.1644,24.3329 -43.5028,29.8226 -15.3384,5.33893 -39.4955,8.00211 -72.8355,8.00211l-29.1694 0 0 -298.829 -144.666 0zm144.666 413.17l106.841 0c69.3307,0 112.658,2.82649 129.993,8.66791 17.1725,5.82885 30.6643,15.9917 40.5005,30.3251 9.67288,14.3335 14.6726,32.1718 14.6726,53.6656 0,24.1696 -6.50721,43.5028 -19.3332,58.3388 -12.8386,14.8359 -31.0035,24.1696 -54.5073,28.1644 -11.6577,1.50746 -46.8318,2.33657 -105.497,2.33657l-112.67 0 0 -181.498z" />
      </glyph>
      <glyph
         id="glyph3067"
         horiz-adv-x="667"
         unicode="P">
        <path
           id="path3069"
           d="M72.8355 0l0 715.831 231.835 0c87.8348,0 145.169,-3.66816 171.826,-10.8286 41.003,-10.6653 75.4987,-34.0058 103.173,-69.9965 27.6619,-36.0032 41.4929,-82.5084 41.4929,-139.34 0,-44.0053 -7.98955,-81.001 -23.9938,-110.836 -16.0042,-29.9985 -36.1665,-53.5023 -60.8387,-70.6623 -24.4963,-16.9966 -49.495,-28.3403 -74.8329,-33.83 -34.4958,-6.83383 -84.4932,-10.3387 -149.992,-10.3387l-94.1661 0 0 -269.999 -144.503 0zm144.503 594.669l0 -203.005 78.991 0c57.0072,0 95.1711,3.66816 114.341,11.1678 19.1573,7.49962 34.1691,19.1699 45.161,35.1741 10.8412,15.9917 16.3308,34.4958 16.3308,55.663 0,26.0037 -7.66293,47.4976 -23.0014,64.4942 -15.1626,16.8333 -34.6591,27.4986 -57.9996,31.6693 -17.3233,3.32898 -51.9949,4.83644 -103.99,4.83644l-69.8332 0z" />
      </glyph>
      <glyph
         id="glyph3071"
         horiz-adv-x="667"
         unicode="V">
        <path
           id="path3073"
           d="M255.339 0l-255.841 715.831 156.839 0 180.996 -529.835 175.33 529.835 153.334 0 -256.331 -715.831 -154.326 0z" />
      </glyph>
      <glyph
         id="glyph3075"
         horiz-adv-x="610"
         unicode="d">
        <path
           id="path3077"
           d="M547.339 0l-127.347 0 0 76.1817c-21.1537,-29.6931 -46.1697,-51.6973 -74.977,-66.1895 -28.8427,-14.4922 -57.8627,-21.6498 -87.166,-21.6498 -59.6698,0 -110.694,23.9884 -153.178,72.0006 -42.3429,47.9768 -63.6737,114.981 -63.6737,200.836 0,87.981 20.6576,154.808 62.0084,200.482 41.3153,45.6736 93.6503,68.6698 156.828,68.6698 57.8272,0 108.001,-24.1655 150.344,-72.3195l0 257.813 137.162 0 0 -715.825zm-366.168 270.498c0,-55.3469 7.6536,-95.3157 22.9962,-120.154 22.0041,-35.6814 53.0083,-53.6815 92.6582,-53.6815 31.6774,0 58.5005,13.5001 80.6817,40.3232 22.0041,26.8585 33.1656,67.0045 33.1656,120.332 0,59.528 -10.8426,102.509 -32.1735,128.694 -21.508,26.1498 -49.0043,39.331 -82.666,39.331 -32.4924,0 -59.6698,-13.004 -81.6739,-38.835 -22.0041,-25.8309 -32.9884,-64.5241 -32.9884,-116.009z" />
      </glyph>
      <glyph
         id="glyph3079"
         horiz-adv-x="610"
         unicode="h">
        <path
           id="path3081"
           d="M208.49 715.825l0 -263.163c44.3271,51.6618 97.1937,77.6699 158.671,77.6699 31.6774,0 59.9887,-5.98824 85.5007,-17.6812 25.3348,-11.6576 44.5043,-26.6459 57.3312,-44.8232 12.8269,-18.319 21.6852,-38.4806 26.327,-60.6619 4.85437,-22.0041 7.19297,-56.4808 7.19297,-103.005l0 -304.16 -137.162 0 0 274.006c0,54.3193 -2.69293,88.8314 -7.8662,103.501 -5.315,14.6694 -14.4922,26.1498 -27.638,34.831 -13.1812,8.64574 -29.6931,13.004 -49.5004,13.004 -22.8545,0 -43.1933,-5.49217 -61.0162,-16.6891 -18.0001,-10.9843 -31.1459,-27.638 -39.331,-49.9965 -8.32684,-22.323 -12.508,-55.3115 -12.508,-98.8236l0 -259.833 -137.162 0 0 715.825 137.162 0z" />
      </glyph>
      <glyph
         id="glyph3083"
         horiz-adv-x="556"
         unicode="c">
        <path
           id="path3085"
           d="M523.988 365.176l-135.32 -24.3427c-4.50004,27.0002 -14.8466,47.339 -31.0042,61.0162 -16.1576,13.6418 -36.9924,20.4805 -62.6816,20.4805 -34.2995,0 -61.4769,-11.8347 -81.8156,-35.327 -20.3387,-23.6695 -30.5081,-63.1777 -30.5081,-118.489 0,-61.5123 10.3465,-105.024 31.0042,-130.359 20.6576,-25.3348 48.3311,-37.9846 83.1621,-37.9846 26.1852,0 47.339,7.3347 63.9926,22.1458 16.6891,14.8466 28.3467,40.3586 35.1853,76.3589l134.824 -22.8545c-13.9962,-61.8312 -40.9964,-108.639 -80.6463,-140.139 -39.6854,-31.6774 -92.8354,-47.339 -159.698,-47.339 -75.8274,0 -136.312,23.8112 -181.312,71.6462 -45.1775,47.835 -67.6777,114.166 -67.6777,198.852 0,85.5007 22.6773,152.151 67.8549,199.809 45.3193,47.835 106.477,71.6817 183.651,71.6817 63.1777,0 113.351,-13.6773 150.663,-40.8192 37.1696,-27.1774 63.9926,-68.6698 80.3274,-124.336z" />
      </glyph>
      <glyph
         id="glyph3087"
         horiz-adv-x="610"
         unicode="b">
        <path
           id="path3089"
           d="M66.0123 0l0 715.825 137.162 0 0 -257.813c42.3429,48.1539 92.3393,72.3195 150.308,72.3195 63.1777,0 115.336,-22.9962 156.863,-68.6698 41.3153,-45.6736 61.9729,-111.332 61.9729,-197.009 0,-88.4771 -21.1537,-156.828 -63.3194,-204.663 -42.1657,-47.835 -93.3314,-71.6462 -153.497,-71.6462 -29.6577,0 -58.8194,7.3347 -87.6621,22.1458 -28.8427,14.8466 -53.6815,36.6735 -74.5163,65.6934l0 -76.1817 -127.312 0zm136.17 270.498c0,-53.6815 8.46857,-93.3314 25.3348,-119.162 23.8112,-36.4964 55.3115,-54.6737 94.8196,-54.6737 30.1538,0 55.9847,13.004 77.3156,38.835 21.3309,25.8309 31.9963,66.6856 31.9963,122.351 0,59.1383 -10.8072,101.977 -32.3152,128.162 -21.3309,26.1498 -48.8272,39.331 -82.4888,39.331 -32.8467,0 -60.1658,-12.8269 -82.0282,-38.3389 -21.8269,-25.6537 -32.6341,-64.347 -32.6341,-116.505z" />
      </glyph>
      <glyph
         id="glyph3091"
         horiz-adv-x="610"
         unicode="o">
        <path
           id="path3093"
           d="M40.0043 266.671c0,45.4964 11.3387,89.6464 33.6617,132.344 22.5002,42.4846 54.3193,75.1541 95.4929,97.4771 41.1736,22.5002 87.166,33.8388 138.013,33.8388 78.3431,0 142.655,-25.512 192.828,-76.5006 50.1736,-50.9886 75.1541,-115.336 75.1541,-193.147 0,-78.3431 -25.3348,-143.363 -75.8274,-195.025 -50.6697,-51.6618 -114.343,-77.3156 -191.163,-77.3156 -47.6579,0 -92.8354,10.6654 -135.993,32.1735 -43.1578,21.4726 -76.0045,52.9729 -98.5047,94.5007 -22.323,41.4925 -33.6617,91.985 -33.6617,151.655zm140.67 -7.3347c0,-51.5201 12.1536,-90.8511 36.6735,-118.17 24.3073,-27.3191 54.4965,-40.9964 90.3196,-40.9964 35.8231,0 65.8352,13.6773 90.0007,40.9964 24.3427,27.3191 36.4964,67.0045 36.4964,119.162 0,50.6697 -12.1536,89.8235 -36.4964,117.178 -24.1655,27.3191 -54.1776,40.9964 -90.0007,40.9964 -35.8231,0 -66.0123,-13.6773 -90.3196,-40.9964 -24.5199,-27.3545 -36.6735,-66.8273 -36.6735,-118.17z" />
      </glyph>
      <glyph
         id="glyph3095"
         horiz-adv-x="556"
         unicode="k">
        <path
           id="path3097"
           d="M66.8273 0l0 715.825 137.34 0 0 -379.81 160.513 182.482 168.982 0 -177.167 -189.32 189.852 -329.176 -147.863 0 -130.501 232.833 -63.8155 -66.8273 0 -166.005 -137.34 0z" />
      </glyph>
      <glyph
         id="glyph3099"
         horiz-adv-x="277"
         unicode="l">
        <path
           id="path3101"
           d="M71.8234 0l0 715.825 137.162 0 0 -715.825 -137.162 0z" />
      </glyph>
      <glyph
         id="glyph3103"
         horiz-adv-x="889"
         unicode="m">
        <path
           id="path3105"
           d="M61.5123 518.496l126.497 0 0 -70.6541c45.1421,54.9926 99.1425,82.4888 161.647,82.4888 33.1656,0 62.0084,-6.83864 86.3511,-20.4805 24.4844,-13.6773 44.5043,-34.3349 60.1658,-62.0084 22.6773,27.6734 47.339,48.3311 73.6659,62.0084 26.327,13.6418 54.4965,20.4805 84.5085,20.4805 37.9846,0 70.3352,-7.83077 96.6622,-23.3151 26.327,-15.3426 45.9925,-38.1972 58.9965,-68.032 9.49614,-22.1458 14.1733,-57.969 14.1733,-107.469l0 -331.514 -137.162 0 0 296.329c0,51.5201 -4.6772,84.6857 -14.1733,99.674 -12.6851,19.4883 -32.1735,29.3388 -58.5005,29.3388 -19.3466,0 -37.3468,-5.8465 -54.3548,-17.6812 -16.8308,-11.6576 -28.9845,-28.8427 -36.4964,-51.4847 -7.47644,-22.6773 -11.3387,-58.3587 -11.3387,-107.186l0 -248.99 -137.162 0 0 284.175c0,50.4925 -2.48033,82.9849 -7.3347,97.6543 -4.81894,14.6694 -12.4725,25.512 -22.6419,32.6695 -10.3465,7.15754 -24.1655,10.8426 -41.8468,10.8426 -21.1537,0 -40.1814,-5.66934 -57.0123,-17.1852 -16.9726,-11.3387 -29.1616,-27.8152 -36.4964,-49.3232 -7.3347,-21.508 -10.9843,-57.0123 -10.9843,-106.832l0 -252.002 -137.162 0 0 518.496z" />
      </glyph>
      <glyph
         id="glyph3107"
         horiz-adv-x="556"
         unicode="e">
        <path
           id="path3109"
           d="M372.015 165.013l136.808 -22.8545c-17.6458,-50.1736 -45.3193,-88.3353 -83.3392,-114.485 -37.8074,-26.327 -85.3235,-39.331 -142.3,-39.331 -90.1779,0 -156.863,29.3388 -200.198,88.3353 -34.1577,47.1618 -51.3075,106.832 -51.3075,178.655 0,85.9967 22.5002,153.32 67.5005,202.006 44.8232,48.65 101.658,72.9927 170.328,72.9927 77.1738,0 137.977,-25.512 182.659,-76.5006 44.5043,-50.9886 65.8352,-129.013 63.9926,-234.179l-343.81 0c0.992134,-40.6421 11.9765,-72.3195 33.1656,-94.8196 21.1537,-22.6773 47.6579,-34.016 79.1581,-34.016 21.508,0 39.5082,5.8465 54.1776,17.5041 14.634,11.8347 25.8309,30.6853 33.1656,56.6934zm7.83077 138.651c-1.02757,39.8271 -11.1615,70.0163 -30.6853,90.6739 -19.4883,20.6576 -43.335,31.0042 -71.3273,31.0042 -30.012,0 -54.6737,-11.0198 -74.162,-32.8467 -19.4883,-21.6498 -29.1616,-51.3429 -28.8427,-88.8314l205.017 0z" />
      </glyph>
      <glyph
         id="glyph3111"
         horiz-adv-x="277"
         unicode="i">
        <path
           id="path3113"
           d="M71.8234 588.831l0 126.993 137.162 0 0 -126.993 -137.162 0zm0 -588.831l0 518.496 137.162 0 0 -518.496 -137.162 0z" />
      </glyph>
      <glyph
         id="glyph3115"
         horiz-adv-x="556"
         unicode="a">
        <path
           id="path3117"
           d="M174.332 360.322l-124.513 22.5002c14.0316,50.1736 38.02,87.166 72.1777,111.332 34.3349,24.0238 85.0046,36.1775 152.328,36.1775 61.3351,0 106.832,-7.3347 136.844,-21.8269 29.8349,-14.4922 50.9886,-32.8467 63.1777,-55.1697 12.1536,-22.323 18.319,-63.1777 18.319,-122.847l-1.4882 -160.159c0,-45.4964 2.16143,-79.1581 6.66147,-100.843 4.32287,-21.4726 12.6497,-44.8232 24.6616,-69.4848l-135.816 0c-3.5079,9.17724 -8.00794,22.6773 -13.1812,40.5003 -2.16143,8.14967 -3.8268,13.5001 -4.81894,16.1576 -23.5277,-22.8191 -48.5083,-39.8271 -75.1896,-51.3075 -26.6459,-11.3387 -55.1697,-17.008 -85.5007,-17.008 -53.3272,0 -95.4929,14.4922 -126.143,43.335 -30.8624,28.9845 -46.1697,65.658 -46.1697,109.985 0,29.1616 6.98037,55.3469 20.9765,78.3431 13.9962,22.9962 33.6617,40.5003 58.8548,52.654 25.1577,12.1891 61.654,22.8545 109.17,31.9963 63.9926,12.0119 108.497,23.3506 133.159,33.6617l0 13.6773c0,26.5041 -6.51974,45.1775 -19.5238,56.5162 -12.9686,11.1615 -37.4885,16.8308 -73.6659,16.8308 -24.4844,0 -43.4767,-4.85437 -57.154,-14.4922 -13.6773,-9.53157 -24.6616,-26.3624 -33.1656,-50.528zm183.509 -111.332c-17.5041,-5.81107 -45.3547,-12.8269 -83.5164,-20.9765 -37.9846,-8.1851 -62.8233,-16.193 -74.6581,-23.8466 -17.823,-12.8269 -26.823,-28.8427 -26.823,-48.3311 0,-19.3466 7.15754,-35.8231 21.4726,-49.8193 14.3505,-14.0316 32.5278,-21.012 54.6737,-21.012 24.8388,0 48.3311,8.14967 70.8313,24.3427 16.6891,12.3308 27.4963,27.4963 32.6695,45.4964 3.68507,11.6576 5.35044,33.9806 5.35044,66.8273l0 27.3191z" />
      </glyph>
      <glyph
         id="glyph3119"
         horiz-adv-x="500"
         unicode="z">
        <path
           id="path3121"
           d="M16.6537 0l0 107.009 194.352 222.982c31.8191,36.4964 55.4886,62.3273 70.6541,77.6699 -15.8387,-0.992134 -36.8153,-1.4882 -62.8233,-1.84253l-183.155 -0.992134 0 113.67 428.637 0 0 -97.1582 -198.143 -228.51 -69.8391 -75.6502c37.9846,2.3386 61.654,3.47247 70.8313,3.47247l212.317 0 0 -120.651 -462.83 0z" />
      </glyph>
      <glyph
         id="glyph3123"
         horiz-adv-x="556"
         unicode="v">
        <path
           id="path3125"
           d="M214.336 0l-208.986 518.496 143.966 0 97.6897 -264.652 28.3112 -88.3353c7.51187,22.5002 12.3662,37.3113 14.1733,44.5043 4.6772,14.6694 9.49614,29.3034 14.6694,43.8311l98.6819 264.652 141.166 0 -206.187 -518.496 -123.485 0z" />
      </glyph>
      <glyph
         id="glyph3127"
         horiz-adv-x="389"
         unicode="r">
        <path
           id="path3129"
           d="M203.175 0l-137.162 0 0 518.496 127.312 0 0 -73.6659c21.8269,34.831 41.4925,57.8272 58.8548,68.847 17.5041,10.9843 37.1696,16.6537 59.3154,16.6537 31.3231,0 61.3351,-8.68117 90.355,-26.0081l-42.52 -119.481c-22.9962,14.8111 -44.5043,22.323 -64.347,22.323 -19.3112,0 -35.4688,-5.17327 -48.8272,-15.8387 -13.5001,-10.4883 -23.8112,-29.6577 -31.5002,-57.3312 -7.6536,-27.6734 -11.4804,-85.6778 -11.4804,-173.836l0 -160.159z" />
      </glyph>
      <glyph
         id="glyph3131"
         horiz-adv-x="610"
         unicode="p">
        <path
           id="path3133"
           d="M67.8194 518.496l128.021 0 0 -76.1463c16.4765,26.1498 38.9767,47.3035 67.3234,63.4966 28.3467,16.3348 59.8469,24.4844 94.3236,24.4844 60.1658,0 111.332,-23.6695 153.178,-70.8313 41.9885,-47.1618 63.0005,-112.997 63.0005,-197.328 0,-86.4928 -21.1537,-153.852 -63.3194,-201.828 -42.3429,-48.0122 -93.6858,-72.0006 -153.852,-72.0006 -28.6656,0 -54.6737,5.66934 -77.9888,17.008 -23.1734,11.4804 -47.6579,30.9687 -73.4888,58.6422l0 -261.321 -137.198 0 0 715.825zm135.851 -250.514c0,-58.1461 11.4804,-101.304 34.6538,-128.977 22.9962,-27.8506 51.1658,-41.8468 84.5085,-41.8468 31.8191,0 58.3233,12.8269 79.5124,38.3389 21.1537,25.512 31.8191,67.5005 31.8191,125.682 0,54.4965 -10.9843,94.8196 -32.8467,121.147 -21.8269,26.327 -48.8272,39.5082 -81.0006,39.5082 -33.4845,0 -61.3351,-12.8269 -83.481,-38.835 -22.1813,-25.8309 -33.1656,-64.1698 -33.1656,-115.017z" />
      </glyph>
      <glyph
         id="glyph3135"
         horiz-adv-x="777"
         unicode="w">
        <path
           id="path3137"
           d="M168.486 0l-164.163 518.496 133.336 0 97.1582 -339.841 89.3629 339.841 132.308 0 86.5282 -339.841 99.1425 339.841 135.178 0 -166.501 -518.496 -131.847 0 -89.3275 333.499 -87.8393 -333.499 -133.336 0z" />
      </glyph>
      <glyph
         id="glyph3139"
         horiz-adv-x="277"
         unicode="Í">
        <path
           id="path3141"
           d="M68.3383 0l0 715.831 144.49 0 0 -715.831 -144.49 0zm-16.5067 756.834l67.3333 145.998 153.836 0 -134.34 -145.998 -86.8298 0z" />
      </glyph>
    </font>
    <font
       font-weight="400"
       font-style="normal"
       font-variant="normal"
       horiz-adv-x="776"
       id="FontID1"
       horiz-origin-x="0"
       horiz-origin-y="0"
       vert-origin-x="45"
       vert-origin-y="90"
       vert-adv-y="90"
       style="font-style:normal;font-variant:normal;font-weight:400">
      <font-face
         id="font-face2990"
         font-family="Switzerland Black" />
      <missing-glyph
         id="missing-glyph2992">
        <path
           id="path2994"
           d="M0 0z" />
      </missing-glyph>
      <glyph
         id="glyph2996"
         horiz-adv-x="331"
         unicode=" " />
      <glyph
         id="glyph2998"
         horiz-adv-x="389"
         unicode="I">
        <path
           id="path3000"
           d="M76.1699 721.163l236.825 0 0 -721.163 -236.825 0 0 721.163z" />
      </glyph>
      <glyph
         id="glyph3002"
         horiz-adv-x="668"
         unicode="L">
        <path
           id="path3004"
           d="M76.1699 721.163l236.825 0 0 -553.162 324.168 0 0 -168.001 -560.993 0 0 721.163z" />
      </glyph>
      <glyph
         id="glyph3006"
         horiz-adv-x="723"
         unicode="P">
        <path
           id="path3008"
           d="M57.1658 721.163l344.672 0c51.8272,0 97.1582,-5.49217 135.993,-16.6655 39.0003,-10.9961 71.3391,-27.4963 97.0047,-49.335 25.6656,-21.6616 44.835,-48.4964 57.3312,-79.9967 12.4962,-31.6656 18.8387,-67.6659 18.8387,-108.497 -0.673234,-33.8388 -6.00005,-64.8312 -15.8387,-93.1661 -10.004,-28.3349 -26.3388,-53.6697 -49.1697,-76.0045 -22.6655,-22.3348 -53.3272,-40.0043 -91.9968,-52.9965 -38.5042,-13.004 -85.17,-19.5002 -139.832,-19.5002l-121.17 0 0 -225.002 -235.833 0 0 721.163zm235.833 -168.001l0 -160.159 102.001 0c26.3388,0 48.1657,6.66147 65.1619,19.8309 17.1734,13.1694 25.6774,34.5003 25.6774,64.1698 0,50.835 -41.0082,76.1581 -123.001,76.1581l-69.8391 0z" />
      </glyph>
    </font>
</defs>
</svg>
